<?xml version="1.0" standalone="no"?>
<!DOCTYPE svg PUBLIC "-//W3C//DTD SVG 1.1//EN" "http://www.w3.org/Graphics/SVG/1.1/DTD/svg11.dtd" >
<svg xmlns="http://www.w3.org/2000/svg">
<metadata>
This is a custom SVG webfont generated by Font Squirrel.
Copyright   : Copyright c 2012 by SURSLY  Tyler Finck All rights reserved
Designer    : Tyler Finck
Foundry     : SURSLY  Tyler Finck
Foundry URL : httpwwwsurslycom
</metadata>
<defs>
<font id="BlackoutSunrise" horiz-adv-x="1499" >
<font-face units-per-em="2048" ascent="1638" descent="-410" />
<missing-glyph horiz-adv-x="583" />
<glyph unicode=" "  horiz-adv-x="583" />
<glyph unicode="&#x09;" horiz-adv-x="583" />
<glyph unicode="&#xa0;" horiz-adv-x="583" />
<glyph unicode="!" horiz-adv-x="481" d="M-25 1548h400l-41 -1108h-318zM16 -25v353h318v-353h-318zM25 1499q10 -262 20 -504.5t21 -505.5h219q10 262 20 505t21 505h-301zM66 25h219v254h-219v-254z" />
<glyph unicode="&#x22;" horiz-adv-x="481" d="M-27 1548h260l-24 -329h-211zM25 1499q4 -61 10 -113.5t10 -117.5h117q4 59 10 113.5t10 117.5h-157zM219 1548h260l-24 -329h-211zM270 1499q4 -61 10.5 -113.5t10.5 -117.5h117q4 59 10 113.5t10 117.5h-158z" />
<glyph unicode="#" horiz-adv-x="1605" d="M-27 354l35 394h252q2 20 4 36.5t4 40.5h-254l35 394h252l27 329h393l-27 -329h140l26 329h393l-26 -329h293l-35 -394h-289q-2 -20 -4 -36.5t-4 -40.5h291l-35 -394h-287l-31 -379h-393l31 379h-139l-31 -379h-393l30 379h-258zM27 403h258l-31 -378h295l31 378h237 l-31 -378h295l31 378h287q6 78 12 148t14 147h-290l14 176h291q6 78 12 148t14 147h-292l26 330h-295l-26 -330h-238l27 330h-295l-27 -330h-252q-6 -78 -12 -147.5t-14 -147.5h254l-15 -176h-254q-6 -78 -12 -147.5t-14 -147.5zM602 698l14 176h238l-14 -176h-238zM655 748 h138q2 20 4 36.5t4 40.5h-137z" />
<glyph unicode="$" horiz-adv-x="929" d="M-23 561h390q0 -29 13 -49t32 -20q18 0 31.5 13t13.5 32q0 39 -35 43h2h-12q-90 0 -169 33.5t-138.5 93t-93.5 138.5t-34 169q0 135 73 240.5t186 158.5v146h393v-166q100 -57 158.5 -163t58.5 -241h-389q0 29 -13.5 50.5t-31.5 21.5t-31.5 -14.5t-13.5 -32.5 q0 -14 11 -26.5t25 -16.5h9q90 0 168.5 -34t138 -93.5t93.5 -138t34 -168.5q0 -123 -58.5 -221.5t-158.5 -155.5v-185h-393v164q-117 51 -188 165t-71 257zM27 512q12 -109 82.5 -204t175.5 -136v-147h295v165q98 53 157.5 144.5t59.5 202.5q0 80 -31 149.5t-83 121.5 t-121.5 83t-149.5 31h-17q-35 6 -56.5 31.5t-21.5 60.5q0 41 27 68.5t68 27.5q35 0 59.5 -20.5t32.5 -51.5h293q-10 100 -68.5 188.5t-148.5 135.5v147h-295v-129q-57 -23 -104.5 -60.5t-81 -84.5t-53 -103.5t-19.5 -117.5q0 -80 30.5 -149.5t83 -122t122 -83t149.5 -30.5 h14q35 -4 57.5 -31t22.5 -61q0 -41 -26.5 -68t-67.5 -27q-35 0 -59.5 20.5t-33.5 49.5h-292z" />
<glyph unicode="%" horiz-adv-x="1550" d="M-23 1026q0 57 21.5 106.5t58.5 86t86.5 58t106.5 21.5q55 0 104 -21.5t86 -58t58.5 -86t21.5 -106.5t-21.5 -106.5t-58.5 -86t-86 -58t-104 -21.5q-57 0 -106.5 21.5t-86.5 58t-58.5 86t-21.5 106.5zM27 1026q0 -47 17 -87t48 -70.5t71 -48t87 -17.5q45 0 85 17.5 t70.5 48t48 70.5t17.5 87q0 45 -17.5 86t-48 71.5t-70.5 48t-85 17.5q-47 0 -87 -17.5t-71 -48t-48 -71.5t-17 -86zM47 -25l926 1573h399l-926 -1573h-399zM131 25h289q221 379 434 737t434 737h-289q-221 -379 -434 -737t-434 -737zM940 526q0 55 21.5 104.5t58.5 86.5 t86 58.5t106 21.5t106.5 -21.5t86.5 -58.5t58.5 -86t21.5 -105q0 -57 -21.5 -106t-58.5 -86t-86 -58.5t-107 -21.5q-57 0 -106 21.5t-86 58.5t-58.5 86t-21.5 106zM989 526q0 -47 17.5 -87t48 -70.5t70.5 -48t87 -17.5q45 0 86 17.5t72 48t48.5 70.5t17.5 87q0 45 -17.5 85 t-48.5 71t-72 48.5t-86 17.5q-47 0 -87 -17.5t-70.5 -48.5t-48 -71t-17.5 -85z" />
<glyph unicode="&#x26;" horiz-adv-x="1435" d="M-25 508q0 127 61.5 241.5t153.5 186.5q-29 45 -45 98t-16 113q0 80 29.5 148.5t82 119.5t121 81t148.5 30q78 0 147.5 -30t120.5 -81t81 -119.5t30 -148.5q0 -104 -49 -189.5t-133 -134.5q49 -51 96 -95t98 -97l199 196l237 -239l-200 -195l188 -190l-244 -244l-184 184 q-72 -72 -174 -120t-213 -48t-208 42t-170 114t-115 169t-42 208zM25 508q0 -100 37.5 -188.5t104 -154t155 -103t188.5 -37.5q111 0 209 51t174 137l188 -188l179 178l-189 190l197 195l-168 174l-203 -201l-270 277q96 47 154.5 129t58.5 180q0 68 -27 128t-71 105 t-104 71t-128 26t-128 -26t-105.5 -71t-72 -105.5t-26.5 -127.5q0 -57 21.5 -113.5t60.5 -109.5q-106 -72 -170.5 -181.5t-64.5 -234.5z" />
<glyph unicode="'" horiz-adv-x="299" d="M-27 1548h260l-24 -329h-211zM25 1499q4 -61 10 -113.5t10 -117.5h117q4 59 10 113.5t10 117.5h-157z" />
<glyph unicode="(" horiz-adv-x="610" d="M-6 762q0 176 47 374.5t170 411.5h379l20 -39q-137 -197 -189 -382t-52 -351t42 -311.5t93 -255.5q59 -127 135 -234h-414q-6 0 -43 58.5t-79 163t-75.5 249t-33.5 316.5zM43 762q0 -160 26.5 -295t59.5 -233.5t62.5 -153.5t33.5 -55h318q-23 37 -61 106.5t-73.5 166.5 t-62.5 218t-27 260q0 166 47.5 347.5t176.5 375.5h-305q-111 -197 -153 -384t-42 -353z" />
<glyph unicode=")" horiz-adv-x="593" d="M-18 1548h413q6 0 43 -58t79 -162.5t76 -249t34 -316.5q0 -176 -47.5 -375t-169.5 -412h-379l-21 39q135 197 188.5 382.5t53.5 351.5t-42 310t-93 255q-59 126 -135 235zM78 25h305q111 197 153 384t42 353q0 160 -27 295t-59.5 233.5t-62.5 153.5t-34 55h-317 q23 -37 60.5 -106.5t73.5 -167t62.5 -218t26.5 -259.5q0 -164 -49 -347t-174 -376z" />
<glyph unicode="*" horiz-adv-x="894" d="M-68 1235l70 266l227 -59v205h275v-207l231 61l70 -266l-187 -51l130 -129l-189 -195l-190 191l-191 -193l-194 189l137 137zM-6 1270l221 -58l-162 -161q31 -31 60.5 -63t64.5 -64l191 192l186 -186q31 31 62.5 60.5t64.5 64.5l-158 157l219 60l-45 168l-243 -66v223 h-176v-221l-240 64z" />
<glyph unicode="+" horiz-adv-x="1204" d="M-25 590v393h359v356h393v-356h358v-393h-358v-359h-393v359h-359zM25 639h358v-358h295v358h358v295h-358v356h-295v-356h-358v-295z" />
<glyph unicode="," horiz-adv-x="477" d="M-23 -25v332h330v-315l-117 -207h-176l47 190h-84zM27 25h96l-47 -191h82q27 47 51 87t49 87v250h-231v-233z" />
<glyph unicode="-" horiz-adv-x="1200" d="M-25 592v393h1108v-393h-1108zM25 641h1009v295h-1009v-295z" />
<glyph unicode="." horiz-adv-x="468" d="M-25 -25v332h330v-332h-330zM25 25h231v233h-231v-233z" />
<glyph unicode="/" horiz-adv-x="485" d="M-197 -25l486 1573h395l-485 -1573h-396zM-131 25h293q57 188 113.5 371.5t113.5 365.5t113.5 365.5t115.5 371.5h-292q-57 -188 -113.5 -371.5t-114 -365.5t-115 -365.5t-114.5 -371.5z" />
<glyph unicode="0" horiz-adv-x="1038" d="M-25 426v649q0 102 36 189.5t100.5 150t156.5 98t203 35.5t201 -35.5t154.5 -99t100.5 -150.5t36 -190q0 -6 1 -13t1 -13v-23v-526v-23q0 -6 -1 -12t-1 -12v-2v-3q0 -102 -36 -188t-100.5 -149.5t-154.5 -98.5t-201 -35q-109 0 -200 36t-156.5 97.5t-102.5 143.5t-37 174 zM25 426q0 -82 32.5 -154.5t92 -128t141.5 -87t180 -31.5t179 30.5t139.5 86t91 132t34.5 166.5q2 -10 13 -14q4 -2 10 -2l-25 27q0 6 1 12t1 12v23v526v23q0 6 -1 13t-1 15q0 92 -31.5 169t-90 134.5t-140.5 89t-180 31.5q-100 0 -183 -31.5t-141.5 -89t-90 -134.5 t-31.5 -169v-649z" />
<glyph unicode="1" horiz-adv-x="671" d="M-125 1210l322 338h378v-1573h-393v990q-8 -10 -15 -18.5t-11 -16.5zM-59 1210l206 -206l84 110v-1089h295v1474h-309z" />
<glyph unicode="2" horiz-adv-x="1046" d="M-25 1028q0 106 37 201.5t101.5 166t152.5 111.5t191 41q82 0 157.5 -26.5t137 -72.5t107.5 -110.5t71 -138.5q12 -39 17 -76t5 -71q0 -98 -41 -186.5t-102 -157.5l-305 -340h444v-394h-964v379l563 650l-2 -3q14 16 14 52q0 12 -4 32l2 -4q-10 33 -34.5 59.5t-59.5 26.5 q-33 0 -54.5 -13t-35 -34.5t-18.5 -46t-5 -45.5h-375zM25 1077h276q2 25 12.5 49.5t29.5 45t49 33t71 12.5q53 0 90 -41t53 -89q0 -4 1 -12t1 -22q0 -47 -22 -78l-553 -641v-309h866v294h-504l377 422q61 66 96 143t35 169q0 70 -18 131q-23 68 -64 126t-97 100t-124 65.5 t-143 23.5q-88 0 -165 -32.5t-135.5 -90t-93 -134.5t-38.5 -165z" />
<glyph unicode="3" horiz-adv-x="1032" d="M-25 498h138h256q0 -53 30.5 -91t71.5 -38q35 0 61.5 21.5t36.5 51.5q4 12 4 29q0 43 -30.5 81t-71.5 38h-123v344h123q41 0 71.5 38t30.5 81q0 16 -4 28q-10 31 -36.5 52.5t-61.5 21.5q-41 0 -71.5 -37t-30.5 -90h-394q0 106 39 201.5t106.5 166t158 111.5t192.5 41 q82 0 158 -26.5t137 -72.5t107.5 -110.5t70.5 -138.5q12 -39 17.5 -76t5.5 -71q0 -80 -26 -156t-71 -135q45 -59 71 -134t26 -155q0 -37 -5.5 -74t-17.5 -75q-25 -74 -71 -138.5t-107 -110.5t-137 -73t-158 -27q-102 0 -192.5 41t-158 113t-106.5 166t-39 203zM25 449 q4 -88 40.5 -166t97 -135.5t139.5 -90t169 -32.5q76 0 143.5 23.5t124 65.5t97.5 100t63 126q18 61 19 133q0 78 -30 151.5t-83 137.5q53 66 83 139.5t30 151.5q0 70 -19 131q-23 68 -63.5 126t-97 100t-124 65.5t-143.5 23.5q-90 0 -169 -32.5t-139.5 -90t-97 -134.5 t-40.5 -165h297q10 53 51 90t98 37q47 0 87 -31.5t56 -74.5q4 -10 6.5 -22.5t2.5 -22.5q0 -31 -12.5 -60.5t-33 -54.5t-48 -39t-58.5 -14h-74v-246h74q31 0 58.5 -14.5t48 -39t33 -54t12.5 -60.5q0 -10 -2.5 -22.5t-6.5 -22.5q-16 -43 -56 -75t-87 -32q-57 0 -98 37t-51 93 h-209h-88z" />
<glyph unicode="4" horiz-adv-x="1105" d="M-41 360v375l514 813h381v-794h184v-394h-184v-385h-393v385h-502zM8 410h502v-385h295v385h184v295h-184v794q-80 0 -153.5 -2t-153.5 -2q-123 -195 -245 -386t-245 -386v-313z" />
<glyph unicode="5" horiz-adv-x="1042" d="M-25 496h394q0 -53 31.5 -91t76.5 -38q43 0 74 25.5t31 66.5v149q0 41 -27 72t-78 31q-45 0 -76.5 -37t-31.5 -90h-394v960h963v-393h-569v-96q29 14 64.5 21t58.5 7q127 0 217 -41t147 -106.5t84 -145t27 -159.5v-64v-137q0 -102 -39 -187t-106.5 -144.5t-158 -92.5 t-192.5 -33t-192.5 41t-158 113t-106.5 166t-39 203zM25 446q4 -88 40.5 -165.5t97 -135t139.5 -90t169 -32.5q92 0 173 28.5t141.5 82.5t96.5 129t36 167v143v58q0 70 -24 141.5t-76 130t-133 95t-193 36.5q-14 0 -34 -3t-39.5 -9t-34.5 -16.5t-22 -24.5l-43 8v211h570v295 h-864v-862h297q10 53 55 90t100 37q76 0 115 -46t39 -106v-149q0 -63 -46 -102.5t-108 -39.5q-59 0 -103 36t-52 93h-297z" />
<glyph unicode="6" horiz-adv-x="1046" d="M-25 434v627q0 94 35 182t99.5 157.5t156.5 111.5t207 42q102 0 189.5 -37.5t151 -104t99 -159t35.5 -200.5h-373q0 53 -30.5 91t-71.5 38q-45 0 -73.5 -31t-30.5 -74v-157q29 20 64.5 32.5t60.5 12.5q111 0 195.5 -35t142 -99.5t87 -155.5t29.5 -204v-2 q0 -102 -30.5 -192.5t-91 -158t-148.5 -106.5t-205 -39t-209 35t-156.5 96.5t-98.5 145.5t-34 184zM25 434q0 -90 30.5 -164.5t88 -130t141.5 -86t188 -30.5t183 34.5t133.5 96t82 142.5t27.5 173v2q0 205 -103.5 324.5t-301.5 119.5q-14 0 -35 -6t-40.5 -15t-34.5 -21.5 t-19 -24.5l-46 6l3 223q0 66 43 110t108 44q57 0 98 -37t52 -92h276q-4 88 -38 161.5t-91 127t-133 84t-164 30.5q-104 0 -187 -37.5t-141.5 -100t-89 -142.5t-30.5 -164v-627z" />
<glyph unicode="7" horiz-adv-x="1064" d="M-53 -25l614 1160h-584v413h832h20h166v-397l-624 -1176h-424zM27 1184h620l-614 -1159h305l608 1142v332h-117h-20h-782v-315z" />
<glyph unicode="8" horiz-adv-x="1034" d="M-25 492q0 41 12.5 86t33 89t45 85t49.5 71q-47 59 -83 133t-36 160q0 102 37 183t99.5 136.5t149.5 84t189 28.5t189.5 -28.5t149.5 -84t99 -136t37 -185.5q0 -86 -36 -158.5t-83 -132.5q25 -31 49.5 -70.5t45 -83.5t33 -89t12.5 -88v-3q0 -111 -36 -205t-100.5 -162.5 t-156.5 -107.5t-203 -39q-113 0 -204 38t-155.5 105.5t-100.5 163t-36 210.5zM25 489q0 -102 31.5 -188t90 -147.5t140.5 -95t184 -33.5q100 0 183 34.5t141.5 97t90.5 147.5t32 185v3q0 39 -14.5 84t-37 90t-50.5 86t-54 71q53 61 94 136t41 157q0 90 -33 162t-89 121 t-134 74.5t-170 25.5t-170 -25.5t-134 -74.5t-89 -121t-33 -164q0 -80 41 -154.5t94 -136.5q-27 -31 -54.5 -71.5t-50 -85.5t-36.5 -91.5t-14 -85.5z" />
<glyph unicode="9" horiz-adv-x="1046" d="M-23 477h373q0 -53 31 -91t72 -38q45 0 73.5 31t30.5 74v155q-29 -18 -65.5 -30.5t-59.5 -12.5q-111 0 -195.5 35t-142 99.5t-87.5 155.5t-30 204v2q0 102 31 192t91.5 158t148.5 106.5t205 38.5t209 -34.5t156.5 -96t98 -145.5t33.5 -184v-627q0 -94 -24.5 -183 t-83 -158t-153.5 -111t-236 -42q-102 0 -189.5 38t-151 104.5t-99.5 158.5t-36 201zM27 428q4 -88 37.5 -161.5t90 -128t133.5 -84t165 -29.5q127 0 213 37.5t138 100t74.5 142.5t22.5 164v627q0 88 -30.5 163.5t-88 131t-141.5 86t-188 30.5t-183.5 -34.5t-133.5 -96 t-81.5 -142.5t-27.5 -173v-2q0 -205 103 -325t302 -120q14 0 34.5 6.5t40 15.5t35 21.5t19.5 24.5l45 -6l-2 -223q0 -66 -43 -110t-108 -44q-57 0 -98.5 37t-51.5 92h-276z" />
<glyph unicode=":" horiz-adv-x="536" d="M-25 305v332h328v-332h-328zM-25 973v332h328v-332h-328zM25 354h229v234h-229v-234zM25 1022h229v233h-229v-233z" />
<glyph unicode=";" horiz-adv-x="501" d="M-25 973v332h328v-332h-328zM-23 307v332h330v-315l-117 -207h-176l47 190h-84zM25 1022h229v233h-229v-233zM27 356h96l-47 -190h82q27 47 51 87t49 87v250h-231v-234z" />
<glyph unicode="&#x3c;" horiz-adv-x="1044" d="M-31 780l633 768h471l-637 -768l633 -805h-465zM31 776q154 -193 297 -376t297 -375h346l-596 759l592 715h-340z" />
<glyph unicode="=" horiz-adv-x="1110" d="M-25 250v393h1108v-393h-1108zM-25 963v393h1108v-393h-1108zM25 299h1009v295h-1009v-295zM25 1012h1009v295h-1009v-295z" />
<glyph unicode="&#x3e;" horiz-adv-x="1044" d="M-61 -25l636 768l-632 805h465l634 -805l-632 -768h-471zM41 1499l596 -760l-592 -714h340l596 723q-154 193 -297 376t-297 375h-346z" />
<glyph unicode="?" horiz-adv-x="1034" d="M-23 1106q0 109 40 190.5t110 137t163 84t197 28.5h2q102 0 189.5 -32.5t151 -93t99.5 -144.5t36 -186q0 -84 -16.5 -139.5t-44 -95.5t-64.5 -68.5t-76 -55.5q-47 -31 -93 -70.5t-83 -97.5q-4 -10 -7 -28.5t-6 -38.5q-2 -23 -2 -50h-331v86q0 78 16 138.5t44 106.5 t63.5 81t76.5 62q74 47 102.5 79.5t28.5 63.5q0 43 -31.5 67.5t-76.5 24.5q-51 0 -85 -40t-34 -97zM27 1147l274 -68q12 53 56 89t108 36q63 0 110.5 -38t47.5 -103q0 -43 -33 -85t-123 -99q-76 -47 -126 -125t-50 -222v-36h233q2 20 7.5 47.5t15.5 44.5q43 70 92 110.5 t96 73.5q35 25 68 50.5t57.5 60.5t39.5 85t15 122q0 92 -31.5 166.5t-89 128t-135 83t-170.5 29.5h-2q-90 0 -170.5 -24.5t-142 -68.5t-101.5 -109.5t-46 -147.5zM244 -25v332h329v-332h-329zM293 25h231v233h-231v-233z" />
<glyph unicode="@" horiz-adv-x="1374" d="M-27 598v317q2 117 46 231t126 203t200 144t265 55q156 0 278 -55t207 -146.5t130 -208t45 -241.5q0 -37 -4 -86t-13.5 -98t-25 -93.5t-39.5 -74.5q-41 -47 -83 -66.5t-77 -19.5q-53 0 -93 24.5t-56 38.5l-5 2l11 -2q6 0 4 -2q-12 -12 -33.5 -31.5t-53.5 -38t-76 -31.5 t-101 -13q-66 0 -113 27.5t-80 70.5t-48 95t-15 101v119q0 76 24.5 133.5t60 94t76.5 55t76 18.5q63 0 107.5 -11t76 -29.5t56 -45t49.5 -57.5l16 -21l-41 -20q-12 98 -76.5 158.5t-183.5 60.5q-47 0 -94 -28.5t-85 -72.5t-61.5 -99.5t-23.5 -106.5v-195q0 -51 23.5 -103 t61.5 -93t85 -68t94 -27q49 0 86 6.5t70 18.5t66.5 32.5t74.5 49.5l234 -293q-39 -39 -100.5 -74.5t-133 -64.5t-149.5 -46.5t-150 -17.5q-162 0 -278.5 51.5t-193.5 137.5t-117 199.5t-46 236.5zM23 602q10 -109 49 -213t110.5 -186t178 -131t249.5 -49q63 0 132 13 t131.5 34.5t116.5 50.5t89 59q-47 59 -90 109.5t-90 111.5q-37 -25 -67.5 -41t-62.5 -27t-69.5 -15.5t-89.5 -4.5q-55 0 -111.5 31t-101.5 79t-72.5 108.5t-27.5 121.5v195q0 59 27.5 122.5t72.5 116t101.5 85t111.5 32.5q141 0 219 -91t99 -239l-70 74q-23 29 -43 51.5 t-47 39t-65.5 24.5t-96.5 8q-27 0 -59.5 -15.5t-61 -46t-48 -78.5t-19.5 -112v-119q0 -41 12 -85t39 -79.5t64.5 -58t91.5 -22.5q51 0 90 11t66.5 27.5t46 33t28.5 26.5q8 8 14.5 12t18.5 4l8 -4q8 -4 12 -8q16 -12 48 -30.5t71 -18.5q29 0 59.5 14.5t63.5 55.5 q20 25 34.5 64.5t21.5 84.5t10.5 90t3.5 80q0 115 -42 223.5t-121 192.5t-192.5 135t-257.5 51q-135 0 -242.5 -50t-183.5 -133t-116.5 -187.5t-42.5 -213.5v-313z" />
<glyph unicode="A" d="M10 -25l461 1573h496l460 -1573h-440l-139 402h-262l-135 -402h-441zM76 25h342l135 401h330l139 -401h340q-109 375 -217.5 737t-216.5 737h-418z" />
<glyph unicode="B" horiz-adv-x="1069" d="M-25 -27v1573h390q117 -2 202.5 -32.5t141 -83t83 -122t27.5 -149.5q0 -123 -47 -212t-108 -134q72 -20 122 -64t80.5 -99.5t45 -117t14.5 -114.5q0 -88 -27 -169t-81 -142.5t-134 -97.5t-186 -36h-523zM25 23h473q94 0 164.5 31.5t118.5 86t72 126t24 151.5 q0 55 -16.5 117.5t-53.5 116t-96.5 89t-145.5 35.5v49q33 0 70 24.5t66.5 69t49 105.5t19.5 135q0 70 -24.5 130.5t-73.5 106.5t-126 72.5t-181 28.5h-340v-1474z" />
<glyph unicode="C" horiz-adv-x="1245" d="M-27 598v317q2 117 40 231t112 203t185.5 144t258.5 55q129 0 224.5 -37.5t163 -98t110.5 -136.5t68 -152l-340 -190q-12 39 -33 79t-50.5 72.5t-64.5 52.5q-32 18 -66 17h-8q-92 -8 -149 -75.5t-57 -170.5v-297q0 -102 58 -171.5t150 -78.5q8 -1 16 0q68 0 118 48 q55 53 88 131l342 -191q-18 -41 -56.5 -104.5t-104 -124t-165.5 -104.5t-248 -44q-162 0 -272.5 51.5t-179 137.5t-101.5 199.5t-39 236.5zM23 602q10 -109 42.5 -212t97 -185t164 -132t240.5 -50q125 0 213 33.5t146.5 81.5t93.5 101.5t53 92.5q-68 39 -125 69.5t-127 69.5 q-35 -72 -96 -118q-54 -41 -132 -40h-22q-115 8 -184.5 92t-69.5 207v297q0 123 69 205t183 90h9q38 0 73 -15q39 -17 72 -46t58.5 -66t41.5 -73l254 141q-23 66 -61.5 129t-100 113.5t-146.5 81t-202 30.5q-135 0 -236.5 -50t-169 -133t-102 -187.5t-36.5 -213.5v-313z" />
<glyph unicode="D" horiz-adv-x="1189" d="M-25 -25v1573h332q184 0 323.5 -59t232.5 -164.5t140.5 -250t47.5 -312.5q0 -158 -36 -301.5t-119 -251t-216 -171t-328 -63.5h-45h-332zM25 25h282h45q180 0 304 59t201 160.5t110.5 234.5t33.5 283q0 158 -44 293t-131 233t-217 154.5t-302 56.5h-282v-1474z" />
<glyph unicode="E" horiz-adv-x="1069" d="M-25 -25v1573h983v-393h-589v-197h434v-393h-434v-196h589v-394h-983zM25 25h884v294h-590v295h435v295h-435v295h590v295h-884v-1474z" />
<glyph unicode="F" horiz-adv-x="1048" d="M-23 -25v1573h984v-393h-590v-197h434v-393h-434v-590h-394zM27 25h295v589h434v295h-434v295h589v295h-884v-1474z" />
<glyph unicode="G" horiz-adv-x="1294" d="M-20 600v315q0 127 37.5 242t113.5 202t186.5 138t257.5 51q125 -4 209 -37.5t139.5 -81t88 -99.5t53.5 -93q4 -10 14.5 -26.5t22.5 -34.5l-328 -218q-10 25 -24.5 55.5t-37 57.5t-55 45.5t-79.5 18.5q-92 0 -145.5 -61.5t-53.5 -164.5v-297q0 -102 60.5 -167.5 t152.5 -67.5h10q54 0 90 19q39 22 58 57v43h-162v344h540v-566q-41 -59 -98 -113.5t-128 -96t-153.5 -66.5t-175.5 -25q-141 0 -250.5 47.5t-184.5 130t-114.5 198.5t-43.5 251zM29 600q10 -115 50 -219.5t109.5 -184t166 -126.5t220.5 -47q84 0 160 22.5t139.5 59t115.5 85 t89 101.5v500h-442v-246h162v-109q-25 -49 -75 -80q-47 -29 -122 -28h-10q-55 0 -103.5 21.5t-84 59t-55 90t-19.5 113.5v297q0 123 67.5 199t180.5 76q51 0 87.5 -14.5t62.5 -37t42 -49t27 -51.5q63 41 116.5 78t118.5 80l-12 27q-18 37 -51 81.5t-85.5 86.5t-128 74 t-182.5 40q-131 -2 -232 -50t-171 -128t-105.5 -184.5t-35.5 -221.5v-315z" />
<glyph unicode="H" horiz-adv-x="1263" d="M-4 -25v1573h393v-590h359v590h393v-1573h-393v590h-359v-590h-393zM45 25h295v589h457v-589h295v1474h-295v-590h-457v590h-295v-1474z" />
<glyph unicode="I" horiz-adv-x="507" d="M-4 -25v1573h393v-1573h-393zM45 25h295v1474h-295v-1474z" />
<glyph unicode="J" horiz-adv-x="1085" d="M-25 473v176h400v-155q0 -43 27.5 -74t68.5 -31t69.5 31t28.5 74v1054h400v-1083q0 -123 -40 -214t-107.5 -152.5t-158 -92.5t-192.5 -31t-192.5 31t-158 93.5t-106.5 155.5t-39 218zM25 473q0 -113 34.5 -196.5t96 -140t142.5 -84t173 -27.5t173 27.5t142.5 82.5 t97.5 137t36 193v1034h-302v-1005q0 -66 -41.5 -110t-105.5 -44q-63 0 -104 44t-41 110v106h-301v-127z" />
<glyph unicode="K" horiz-adv-x="1148" d="M-25 -25v1573h394v-299l211 299h487l-586 -788q141 -188 292 -393t292 -392h-487l-209 281v-281h-394zM25 25h294v381l283 -381h363q-135 182 -272.5 368.5t-272.5 366.5l549 739h-365l-285 -407v407h-294v-1474z" />
<glyph unicode="L" horiz-adv-x="909" d="M-25 -25v1573h394v-1179h407v-394h-801zM25 25h702v294h-408v1180h-294v-1474z" />
<glyph unicode="M" horiz-adv-x="1474" d="M-25 -25v1573h392l299 -835q74 211 150.5 418.5t150.5 416.5h385v-1573h-414v412l-145 -412h-254l-150 431v-431h-414zM25 25h315v532l45 8l186 -540h189l182 524l45 -8v-516h316v1474h-304l-333 -932l-332 932h-309v-1474z" />
<glyph unicode="N" horiz-adv-x="1236" d="M-23 -25v1573h392l366 -676v676h414v-1573h-389l-369 676v-676h-414zM27 25h315v737l41 10l410 -747h307v1474h-316v-735l-41 -10l-407 745h-309v-1474z" />
<glyph unicode="O" horiz-adv-x="1271" d="M-20 606v357q0 104 39.5 209.5t115.5 185.5q90 92 202 141t238 49q125 0 239 -49t200 -141q78 -80 115.5 -182.5t39.5 -212.5v-357q0 -115 -36.5 -233.5t-118.5 -206.5q-88 -92 -202 -142.5t-239 -50.5q-123 0 -235.5 49.5t-202.5 141.5q-84 90 -118.5 202.5t-36.5 239.5 zM29 606q2 -117 33.5 -221t109.5 -188q80 -84 183.5 -129t219.5 -45q117 0 220.5 45t181.5 131q78 82 110.5 191.5t32.5 215.5v357q-2 100 -36.5 194t-106.5 168q-80 86 -183.5 130t-220.5 44t-219 -45t-182 -129q-70 -74 -106.5 -170t-36.5 -192v-357z" />
<glyph unicode="P" horiz-adv-x="1017" d="M-25 -25v1573h488h2q104 0 188 -36.5t143.5 -104.5t92.5 -163t33 -214q0 -115 -33 -210t-92.5 -163.5t-144.5 -106.5t-189 -38h-88v-537h-400zM25 25h301v536h139q92 0 168 34t129 96.5t81.5 148.5t28.5 190q0 106 -28.5 193.5t-81.5 149t-129 94t-168 32.5h-2h-438 v-1474z" />
<glyph unicode="Q" horiz-adv-x="1361" d="M-20 606v357q8 113 42.5 214t112.5 181q86 92 200 141t240 49q123 0 236 -49t203 -141q76 -80 110.5 -181.5t44.5 -211.5v-47v-189v-102v-45q-2 -57 -10 -108.5t-31 -98.5q47 2 99.5 5t93.5 5v-405l-209 -5h-250h-84q-41 0 -91 -1t-114 -1q-84 0 -146 12.5t-112.5 37 t-93.5 59.5t-86 82q-86 90 -120.5 202.5t-34.5 239.5zM29 606q0 -117 32.5 -221t110.5 -188q37 -39 78 -71t89 -55.5t105.5 -35.5t130.5 -12q61 0 111.5 1t91.5 1h84h250l160 4v307q-51 -4 -118 -7t-110 -5q47 78 60.5 135t15.5 123v45v102v189v45v-2q-10 104 -41.5 197 t-101.5 167q-80 84 -183.5 129t-220.5 45q-115 0 -218 -44t-183 -130q-72 -74 -103.5 -167t-39.5 -197v2v-357z" />
<glyph unicode="R" horiz-adv-x="1069" d="M-25 -25v1573h490q137 0 229 -42t147.5 -112.5t79 -163.5t23.5 -196q0 -94 -28.5 -170t-70.5 -131t-88 -91t-83 -50q76 -147 158.5 -308t156.5 -309h-452l-168 402v-402h-394zM25 25h294q0 119 2.5 241.5t2.5 239.5l43 8l204 -489h336l-309 608q27 0 77 26.5t99 77.5 t85 126t36 171q0 94 -20.5 178t-70.5 147.5t-133 101.5t-208 38h-438v-1474z" />
<glyph unicode="S" horiz-adv-x="1155" d="M-31 365l350 145l21 -45q-2 0 11.5 -18.5t38 -40t54.5 -37.5q25 -13 51 -13h13q14 2 28.5 7.5t26.5 16.5t19.5 26.5t5.5 37.5q-2 27 -25.5 53.5t-64.5 55.5q-41 27 -78 50.5t-72 45.5q-78 47 -142.5 91t-111.5 95.5t-72.5 118t-25.5 160.5q0 106 43 186t114.5 134.5 t164 83t190.5 30.5q119 0 209 -34.5t151.5 -90t96 -125t45.5 -137.5l-346 -137q-6 25 -18.5 53.5t-31 54t-45 42t-59.5 16.5t-58.5 -19.5t-25.5 -58.5q0 -29 29.5 -55.5t91.5 -71.5h-2q96 -53 186 -108.5t158.5 -125t110.5 -158.5t42 -210v-29v-2q-6 -78 -45 -146.5 t-108.5 -119.5t-168.5 -81t-222 -30q-96 0 -182.5 27t-155 77t-117.5 123t-74 163zM31 336q47 -147 172 -229t295 -82q111 0 199.5 26.5t152 71.5t100.5 105.5t43 127.5v27q0 111 -40 193.5t-107.5 148.5t-154.5 119t-179 104q-70 51 -102.5 83t-32.5 81q0 63 41 95t92 32 q41 0 72.5 -14.5t54 -36t38 -48t23.5 -50.5q66 27 127.5 51t128.5 51q-12 55 -43.5 110.5t-86 99.5t-133.5 70.5t-183 26.5q-90 -2 -173 -27.5t-147.5 -73.5t-103.5 -119t-39 -165q0 -84 24.5 -143.5t68.5 -107.5t103.5 -89t131.5 -84l153 -96q53 -35 81 -70t30 -75 q2 -35 -9.5 -61t-28.5 -42t-39.5 -26.5t-43.5 -12.5q-8 -1 -16 -1q-28 0 -57 11q-36 14 -64.5 37t-48 48.5t-27.5 48.5z" />
<glyph unicode="T" horiz-adv-x="1142" d="M-23 1155v393h1086v-393h-346v-1180h-393v1180h-347zM27 1204h346v-1179h295v1179h346v295h-987v-295z" />
<glyph unicode="U" horiz-adv-x="1257" d="M-23 608v942h404v-915q0 -51 10 -95t30.5 -78t53.5 -53.5t78 -19.5t77 19.5t52 53.5t30.5 78t10.5 95v915h403v-942q0 -139 -36.5 -257t-109.5 -201.5t-180 -130.5q-103 -44 -237 -44h-12h-12q-150 0 -254 50q-109 51 -177.5 139t-99.5 203.5t-31 240.5zM27 608 q0 -117 28.5 -223t91 -187t162.5 -128q96 -45 232 -46h12h12q122 0 214 42q97 43 164 120.5t100.5 185t33.5 236.5v893h-305v-866q0 -61 -13.5 -115.5t-40 -94.5t-67.5 -62.5t-98 -22.5t-99 22.5t-69 62.5t-40 94t-13 116v866h-305v-893z" />
<glyph unicode="V" horiz-adv-x="1384" d="M-23 1548h455l213 -635q51 158 105.5 320t103.5 315h455l-506 -1573h-342zM43 1499q115 -375 227.5 -737.5t227.5 -736.5h272q59 188 118.5 371.5t118 365.5t118 365.5t118.5 371.5h-354l-244 -741l-246 741h-356z" />
<glyph unicode="W" horiz-adv-x="1906" d="M-29 1548h459l141 -600l140 600h329l140 -600l139 600h479l-446 -1573h-348l-121 555q-35 -137 -69 -279t-69 -276h-370zM37 1499l379 -1474h289l157 634l45 -2l137 -632h269l420 1474h-373l-158 -676h-45l-158 676h-247l-158 -676h-45l-160 676h-352z" />
<glyph unicode="X" horiz-adv-x="1261" d="M-39 -25l424 787q-100 188 -212 393t-212 393h442l183 -370q45 92 90 186t90 184h444l-424 -786q100 -188 212 -393t212 -394h-444l-180 371q-45 -92 -90 -186t-90 -185h-445zM45 25h328l213 432l211 -432h329q-100 186 -199.5 368t-197.5 369l397 737h-329 q-25 -49 -51.5 -104.5t-54 -112.5t-54.5 -111.5t-51 -103.5l-213 432h-328q100 -186 199.5 -368.5t197.5 -368.5z" />
<glyph unicode="Y" horiz-adv-x="1181" d="M-55 1548h440l164 -329l160 329h444l-428 -794v-779h-373v781q-98 193 -203.5 397.5t-203.5 394.5zM25 1499q92 -182 188 -365.5t188 -365.5v-743h275v745l393 729h-328l-192 -391l-193 391h-331z" />
<glyph unicode="Z" horiz-adv-x="1128" d="M-25 -25v377l531 803h-531v393h1022v-374l-514 -805h514v-394h-1022zM25 25h923v294h-551l551 867v313h-923v-295h573l-573 -868v-311z" />
<glyph unicode="[" horiz-adv-x="722" d="M-25 -25v1573h738v-370h-344v-832h344v-371h-738zM25 25h639v272h-345v930h345v272h-639v-1474z" />
<glyph unicode="\" horiz-adv-x="485" d="M-139 1552h395l487 -1577h-395zM-74 1503l457 -1478h295l-457 1478h-295z" />
<glyph unicode="]" horiz-adv-x="722" d="M-43 -25v371h344v832h-344v370h737v-1573h-737zM6 25h639v1474h-639v-272h344v-930h-344v-272z" />
<glyph unicode="^" horiz-adv-x="1705" />
<glyph unicode="_" horiz-adv-x="1030" d="M-25 25h1108v-394h-1108v394zM25 -25v-294h1009v294h-1009z" />
<glyph unicode="`" horiz-adv-x="485" d="M-27 1155v393h392v-377l-117 -206h-268l110 190h-117zM23 1204h151l-111 -190h152q27 47 51.5 87t48.5 87v311h-292v-295z" />
<glyph unicode="a" d="M10 -25l461 1573h496l460 -1573h-440l-139 402h-262l-135 -402h-441zM76 25h342l135 401h330l139 -401h340q-109 375 -217.5 737t-216.5 737h-418z" />
<glyph unicode="b" horiz-adv-x="1040" d="M-25 -27v1573h390q117 -2 202.5 -32.5t141 -83t83 -122t27.5 -149.5q0 -123 -47 -212t-108 -134q72 -20 122 -64t80.5 -99.5t45 -117t14.5 -114.5q0 -88 -27 -169t-81 -142.5t-134 -97.5t-186 -36h-523zM25 23h473q94 0 164.5 31.5t118.5 86t72 126t24 151.5 q0 55 -16.5 117.5t-53.5 116t-96.5 89t-145.5 35.5v49q33 0 70 24.5t66.5 69t49 105.5t19.5 135q0 70 -24.5 130.5t-73.5 106.5t-126 72.5t-181 28.5h-340v-1474z" />
<glyph unicode="c" horiz-adv-x="1245" d="M-27 598v317q2 117 40 231t112 203t185.5 144t258.5 55q129 0 224.5 -37.5t163 -98t110.5 -136.5t68 -152l-340 -190q-12 39 -33 79t-50.5 72.5t-64.5 52.5q-32 18 -66 17h-8q-92 -8 -149 -75.5t-57 -170.5v-297q0 -102 58 -171.5t150 -78.5q8 -1 16 0q68 0 118 48 q55 53 88 131l342 -191q-18 -41 -56.5 -104.5t-104 -124t-165.5 -104.5t-248 -44q-162 0 -272.5 51.5t-179 137.5t-101.5 199.5t-39 236.5zM23 602q10 -109 42.5 -212t97 -185t164 -132t240.5 -50q125 0 213 33.5t146.5 81.5t93.5 101.5t53 92.5q-68 39 -125 69.5t-127 69.5 q-35 -72 -96 -118q-54 -41 -132 -40h-22q-115 8 -184.5 92t-69.5 207v297q0 123 69 205t183 90h9q38 0 73 -15q39 -17 72 -46t58.5 -66t41.5 -73l254 141q-23 66 -61.5 129t-100 113.5t-146.5 81t-202 30.5q-135 0 -236.5 -50t-169 -133t-102 -187.5t-36.5 -213.5v-313z" />
<glyph unicode="d" horiz-adv-x="1189" d="M-25 -25v1573h332q184 0 323.5 -59t232.5 -164.5t140.5 -250t47.5 -312.5q0 -158 -36 -301.5t-119 -251t-216 -171t-328 -63.5h-45h-332zM25 25h282h45q180 0 304 59t201 160.5t110.5 234.5t33.5 283q0 158 -44 293t-131 233t-217 154.5t-302 56.5h-282v-1474z" />
<glyph unicode="e" horiz-adv-x="1069" d="M-25 -25v1573h983v-393h-589v-197h434v-393h-434v-196h589v-394h-983zM25 25h884v294h-590v295h435v295h-435v295h590v295h-884v-1474z" />
<glyph unicode="f" horiz-adv-x="1058" d="M-23 -25v1573h984v-393h-590v-197h434v-393h-434v-590h-394zM27 25h295v589h434v295h-434v295h589v295h-884v-1474z" />
<glyph unicode="g" horiz-adv-x="1294" d="M-20 600v315q0 127 37.5 242t113.5 202t186.5 138t257.5 51q125 -4 209 -37.5t139.5 -81t88 -99.5t53.5 -93q4 -10 14.5 -26.5t22.5 -34.5l-328 -218q-10 25 -24.5 55.5t-37 57.5t-55 45.5t-79.5 18.5q-92 0 -145.5 -61.5t-53.5 -164.5v-297q0 -102 60.5 -167.5 t152.5 -67.5h10q54 0 90 19q39 22 58 57v43h-162v344h540v-566q-41 -59 -98 -113.5t-128 -96t-153.5 -66.5t-175.5 -25q-141 0 -250.5 47.5t-184.5 130t-114.5 198.5t-43.5 251zM29 600q10 -115 50 -219.5t109.5 -184t166 -126.5t220.5 -47q84 0 160 22.5t139.5 59t115.5 85 t89 101.5v500h-442v-246h162v-109q-25 -49 -75 -80q-47 -29 -122 -28h-10q-55 0 -103.5 21.5t-84 59t-55 90t-19.5 113.5v297q0 123 67.5 199t180.5 76q51 0 87.5 -14.5t62.5 -37t42 -49t27 -51.5q63 41 116.5 78t118.5 80l-12 27q-18 37 -51 81.5t-85.5 86.5t-128 74 t-182.5 40q-131 -2 -232 -50t-171 -128t-105.5 -184.5t-35.5 -221.5v-315z" />
<glyph unicode="h" horiz-adv-x="1263" d="M-4 -25v1573h393v-590h359v590h393v-1573h-393v590h-359v-590h-393zM45 25h295v589h457v-589h295v1474h-295v-590h-457v590h-295v-1474z" />
<glyph unicode="i" horiz-adv-x="512" d="M-4 -25v1573h393v-1573h-393zM45 25h295v1474h-295v-1474z" />
<glyph unicode="j" horiz-adv-x="1085" d="M-25 473v176h400v-155q0 -43 27.5 -74t68.5 -31t69.5 31t28.5 74v1054h400v-1083q-2 -102 -41 -191.5t-106.5 -156t-158 -104.5t-192.5 -38t-192.5 39t-158 106.5t-106.5 159t-39 193.5zM25 473q0 -92 34.5 -174t96 -142.5t142.5 -96t173 -35.5t173 34.5t141.5 94 t96.5 139.5t38 172v1034h-302v-1005q0 -66 -41.5 -110t-105.5 -44q-63 0 -104 44t-41 110v106h-301v-127z" />
<glyph unicode="k" horiz-adv-x="1148" d="M-25 -25v1573h394v-299l211 299h487l-586 -788q141 -188 292 -393t292 -392h-487l-209 281v-281h-394zM25 25h294v381l283 -381h363q-135 182 -272.5 368.5t-272.5 366.5l549 739h-365l-285 -407v407h-294v-1474z" />
<glyph unicode="l" horiz-adv-x="897" d="M-25 -25v1573h394v-1179h407v-394h-801zM25 25h702v294h-408v1180h-294v-1474z" />
<glyph unicode="m" horiz-adv-x="1474" d="M-25 -25v1573h392l299 -835q74 211 150.5 418.5t150.5 416.5h385v-1573h-414v412l-145 -412h-254l-150 431v-431h-414zM25 25h315v532l45 8l186 -540h189l182 524l45 -8v-516h316v1474h-304l-333 -932l-332 932h-309v-1474z" />
<glyph unicode="n" horiz-adv-x="1236" d="M-23 -25v1573h392l366 -676v676h414v-1573h-389l-369 676v-676h-414zM27 25h315v737l41 10l410 -747h307v1474h-316v-735l-41 -10l-407 745h-309v-1474z" />
<glyph unicode="o" horiz-adv-x="1275" d="M-20 606v357q0 104 39.5 209.5t115.5 185.5q90 92 202 141t238 49q125 0 239 -49t200 -141q78 -80 115.5 -182.5t39.5 -212.5v-357q0 -115 -36.5 -233.5t-118.5 -206.5q-88 -92 -202 -142.5t-239 -50.5q-123 0 -235.5 49.5t-202.5 141.5q-84 90 -118.5 202.5t-36.5 239.5 zM29 606q2 -117 33.5 -221t109.5 -188q80 -84 183.5 -129t219.5 -45q117 0 220.5 45t181.5 131q78 82 110.5 191.5t32.5 215.5v357q-2 100 -36.5 194t-106.5 168q-80 86 -183.5 130t-220.5 44t-219 -45t-182 -129q-70 -74 -106.5 -170t-36.5 -192v-357z" />
<glyph unicode="p" horiz-adv-x="1017" d="M-25 -25v1573h488h2q104 0 188 -36.5t143.5 -104.5t92.5 -163t33 -214q0 -115 -33 -210t-92.5 -163.5t-144.5 -106.5t-189 -38h-88v-537h-400zM25 25h301v536h139q92 0 168 34t129 96.5t81.5 148.5t28.5 190q0 106 -28.5 193.5t-81.5 149t-129 94t-168 32.5h-2h-438 v-1474z" />
<glyph unicode="q" horiz-adv-x="1361" d="M-20 606v357q8 113 42.5 214t112.5 181q86 92 200 141t240 49q123 0 236 -49t203 -141q76 -80 110.5 -181.5t44.5 -211.5v-47v-189v-102v-45q-2 -57 -10 -108.5t-31 -98.5q47 2 99.5 5t93.5 5v-405l-209 -5h-250h-84q-41 0 -91 -1t-114 -1q-84 0 -146 12.5t-112.5 37 t-93.5 59.5t-86 82q-86 90 -120.5 202.5t-34.5 239.5zM29 606q0 -117 32.5 -221t110.5 -188q37 -39 78 -71t89 -55.5t105.5 -35.5t130.5 -12q61 0 111.5 1t91.5 1h84h250l160 4v307q-51 -4 -118 -7t-110 -5q47 78 60.5 135t15.5 123v45v102v189v45v-2q-10 104 -41.5 197 t-101.5 167q-80 84 -183.5 129t-220.5 45q-115 0 -218 -44t-183 -130q-72 -74 -103.5 -167t-39.5 -197v2v-357z" />
<glyph unicode="r" horiz-adv-x="1069" d="M-25 -25v1573h490q137 0 229 -42t147.5 -112.5t79 -163.5t23.5 -196q0 -94 -28.5 -170t-70.5 -131t-88 -91t-83 -50q76 -147 158.5 -308t156.5 -309h-452l-168 402v-402h-394zM25 25h294q0 119 2.5 241.5t2.5 239.5l43 8l204 -489h336l-309 608q27 0 77 26.5t99 77.5 t85 126t36 171q0 94 -20.5 178t-70.5 147.5t-133 101.5t-208 38h-438v-1474z" />
<glyph unicode="s" horiz-adv-x="1134" d="M-31 365l350 145l21 -45q-2 0 11.5 -18.5t38 -40t54.5 -37.5q25 -13 51 -13h13q14 2 28.5 7.5t26.5 16.5t19.5 26.5t5.5 37.5q-2 27 -25.5 53.5t-64.5 55.5q-41 27 -78 50.5t-72 45.5q-78 47 -142.5 91t-111.5 95.5t-72.5 118t-25.5 160.5q0 106 43 186t114.5 134.5 t164 83t190.5 30.5q119 0 209 -34.5t151.5 -90t96 -125t45.5 -137.5l-346 -137q-6 25 -18.5 53.5t-31 54t-45 42t-59.5 16.5t-58.5 -19.5t-25.5 -58.5q0 -29 29.5 -55.5t91.5 -71.5h-2q96 -53 186 -108.5t158.5 -125t110.5 -158.5t42 -210v-29v-2q-6 -78 -45 -146.5 t-108.5 -119.5t-168.5 -81t-222 -30q-96 0 -182.5 27t-155 77t-117.5 123t-74 163zM31 336q47 -147 172 -229t295 -82q111 0 199.5 26.5t152 71.5t100.5 105.5t43 127.5v27q0 111 -40 193.5t-107.5 148.5t-154.5 119t-179 104q-70 51 -102.5 83t-32.5 81q0 63 41 95t92 32 q41 0 72.5 -14.5t54 -36t38 -48t23.5 -50.5q66 27 127.5 51t128.5 51q-12 55 -43.5 110.5t-86 99.5t-133.5 70.5t-183 26.5q-90 -2 -173 -27.5t-147.5 -73.5t-103.5 -119t-39 -165q0 -84 24.5 -143.5t68.5 -107.5t103.5 -89t131.5 -84l153 -96q53 -35 81 -70t30 -75 q2 -35 -9.5 -61t-28.5 -42t-39.5 -26.5t-43.5 -12.5q-8 -1 -15 -1q-29 0 -58 12q-36 15 -65.5 38t-50 49.5t-28.5 49.5z" />
<glyph unicode="t" horiz-adv-x="1159" d="M-23 1155v393h1086v-393h-346v-1180h-393v1180h-347zM27 1204h346v-1179h295v1179h346v295h-987v-295z" />
<glyph unicode="u" horiz-adv-x="1253" d="M-23 608v942h404v-915q0 -51 10 -95t30.5 -78t53.5 -53.5t78 -19.5t77 19.5t52 53.5t30.5 78t10.5 95v915h403v-942q0 -139 -36.5 -257t-109.5 -201.5t-180 -130.5q-103 -44 -237 -44h-12h-12q-150 0 -254 50q-109 51 -177.5 139t-99.5 203.5t-31 240.5zM27 608 q0 -117 28.5 -223t91 -187t162.5 -128q96 -45 232 -46h12h12q122 0 214 42q97 43 164 120.5t100.5 185t33.5 236.5v893h-305v-866q0 -61 -13.5 -115.5t-40 -94.5t-67.5 -62.5t-98 -22.5t-99 22.5t-69 62.5t-40 94t-13 116v866h-305v-893z" />
<glyph unicode="v" horiz-adv-x="1400" d="M-23 1548h455l213 -635q51 158 105.5 320t103.5 315h455l-506 -1573h-342zM43 1499q115 -375 227.5 -737.5t227.5 -736.5h272q59 188 118.5 371.5t118 365.5t118 365.5t118.5 371.5h-354l-244 -741l-246 741h-356z" />
<glyph unicode="w" horiz-adv-x="1914" d="M-29 1548h459l141 -600l140 600h329l140 -600l139 600h479l-446 -1573h-348l-121 555q-35 -137 -69 -279t-69 -276h-370zM37 1499l379 -1474h289l157 634l45 -2l137 -632h269l420 1474h-373l-158 -676h-45l-158 676h-247l-158 -676h-45l-160 676h-352z" />
<glyph unicode="x" horiz-adv-x="1261" d="M-39 -25l424 787q-100 188 -212 393t-212 393h442l183 -370q45 92 90 186t90 184h444l-424 -786q100 -188 212 -393t212 -394h-444l-180 371q-45 -92 -90 -186t-90 -185h-445zM45 25h328l213 432l211 -432h329q-100 186 -199.5 368t-197.5 369l397 737h-329 q-25 -49 -51.5 -104.5t-54 -112.5t-54.5 -111.5t-51 -103.5l-213 432h-328q100 -186 199.5 -368.5t197.5 -368.5z" />
<glyph unicode="y" horiz-adv-x="1181" d="M-55 1548h440l164 -329l160 329h444l-428 -794v-779h-373v781q-98 193 -203.5 397.5t-203.5 394.5zM25 1499q92 -182 188 -365.5t188 -365.5v-743h275v745l393 729h-328l-192 -391l-193 391h-331z" />
<glyph unicode="z" horiz-adv-x="1128" d="M-25 -25v377l531 803h-531v393h1022v-374l-514 -805h514v-394h-1022zM25 25h923v294h-551l551 867v313h-923v-295h573l-573 -868v-311z" />
<glyph unicode="{" horiz-adv-x="1705" />
<glyph unicode="|" horiz-adv-x="485" d="M-25 -188v1900h394v-1900h-394zM25 -139h294v1802h-294v-1802z" />
<glyph unicode="}" horiz-adv-x="1705" />
<glyph unicode="~" horiz-adv-x="1705" />
<glyph unicode="&#xaa;" d="M10 -25l461 1573h496l460 -1573h-440l-139 402h-262l-135 -402h-441zM76 25h342l135 401h330l139 -401h340q-109 375 -217.5 737t-216.5 737h-418z" />
<glyph unicode="&#xad;" horiz-adv-x="1200" d="M-25 592v393h1108v-393h-1108zM25 641h1009v295h-1009v-295z" />
<glyph unicode="&#xb2;" horiz-adv-x="1046" d="M-25 1028q0 106 37 201.5t101.5 166t152.5 111.5t191 41q82 0 157.5 -26.5t137 -72.5t107.5 -110.5t71 -138.5q12 -39 17 -76t5 -71q0 -98 -41 -186.5t-102 -157.5l-305 -340h444v-394h-964v379l563 650l-2 -3q14 16 14 52q0 12 -4 32l2 -4q-10 33 -34.5 59.5t-59.5 26.5 q-33 0 -54.5 -13t-35 -34.5t-18.5 -46t-5 -45.5h-375zM25 1077h276q2 25 12.5 49.5t29.5 45t49 33t71 12.5q53 0 90 -41t53 -89q0 -4 1 -12t1 -22q0 -47 -22 -78l-553 -641v-309h866v294h-504l377 422q61 66 96 143t35 169q0 70 -18 131q-23 68 -64 126t-97 100t-124 65.5 t-143 23.5q-88 0 -165 -32.5t-135.5 -90t-93 -134.5t-38.5 -165z" />
<glyph unicode="&#xb3;" horiz-adv-x="1032" d="M-25 498h138h256q0 -53 30.5 -91t71.5 -38q35 0 61.5 21.5t36.5 51.5q4 12 4 29q0 43 -30.5 81t-71.5 38h-123v344h123q41 0 71.5 38t30.5 81q0 16 -4 28q-10 31 -36.5 52.5t-61.5 21.5q-41 0 -71.5 -37t-30.5 -90h-394q0 106 39 201.5t106.5 166t158 111.5t192.5 41 q82 0 158 -26.5t137 -72.5t107.5 -110.5t70.5 -138.5q12 -39 17.5 -76t5.5 -71q0 -80 -26 -156t-71 -135q45 -59 71 -134t26 -155q0 -37 -5.5 -74t-17.5 -75q-25 -74 -71 -138.5t-107 -110.5t-137 -73t-158 -27q-102 0 -192.5 41t-158 113t-106.5 166t-39 203zM25 449 q4 -88 40.5 -166t97 -135.5t139.5 -90t169 -32.5q76 0 143.5 23.5t124 65.5t97.5 100t63 126q18 61 19 133q0 78 -30 151.5t-83 137.5q53 66 83 139.5t30 151.5q0 70 -19 131q-23 68 -63.5 126t-97 100t-124 65.5t-143.5 23.5q-90 0 -169 -32.5t-139.5 -90t-97 -134.5 t-40.5 -165h297q10 53 51 90t98 37q47 0 87 -31.5t56 -74.5q4 -10 6.5 -22.5t2.5 -22.5q0 -31 -12.5 -60.5t-33 -54.5t-48 -39t-58.5 -14h-74v-246h74q31 0 58.5 -14.5t48 -39t33 -54t12.5 -60.5q0 -10 -2.5 -22.5t-6.5 -22.5q-16 -43 -56 -75t-87 -32q-57 0 -98 37t-51 93 h-209h-88z" />
<glyph unicode="&#xb9;" horiz-adv-x="671" d="M-125 1210l322 338h378v-1573h-393v990q-8 -10 -15 -18.5t-11 -16.5zM-59 1210l206 -206l84 110v-1089h295v1474h-309z" />
<glyph unicode="&#xba;" horiz-adv-x="1275" d="M-20 606v357q0 104 39.5 209.5t115.5 185.5q90 92 202 141t238 49q125 0 239 -49t200 -141q78 -80 115.5 -182.5t39.5 -212.5v-357q0 -115 -36.5 -233.5t-118.5 -206.5q-88 -92 -202 -142.5t-239 -50.5q-123 0 -235.5 49.5t-202.5 141.5q-84 90 -118.5 202.5t-36.5 239.5 zM29 606q2 -117 33.5 -221t109.5 -188q80 -84 183.5 -129t219.5 -45q117 0 220.5 45t181.5 131q78 82 110.5 191.5t32.5 215.5v357q-2 100 -36.5 194t-106.5 168q-80 86 -183.5 130t-220.5 44t-219 -45t-182 -129q-70 -74 -106.5 -170t-36.5 -192v-357z" />
<glyph unicode="&#xbc;" horiz-adv-x="2263" d="M1116 360v375l514 813h381v-794h184v-394h-184v-385h-393v385h-502zM1165 410h502v-385h295v385h184v295h-184v794q-80 0 -153.5 -2t-153.5 -2q-123 -195 -245 -386t-245 -386v-313zM475 -25l486 1573h395l-485 -1573h-396zM541 25h293q57 188 113.5 371.5t113.5 365.5 t113.5 365.5t115.5 371.5h-292q-57 -188 -113.5 -371.5t-114 -365.5t-115 -365.5t-114.5 -371.5zM-125 1210l322 338h378v-1573h-393v990q-8 -10 -15 -18.5t-11 -16.5zM-59 1210l206 -206l84 110v-1089h295v1474h-309z" />
<glyph unicode="&#xbd;" horiz-adv-x="2203" d="M1132 1028q0 106 37 201.5t101.5 166t152.5 111.5t191 41q82 0 157.5 -26.5t137 -72.5t107.5 -110.5t71 -138.5q12 -39 17 -76t5 -71q0 -98 -41 -186.5t-102 -157.5l-305 -340h444v-394h-964v379l563 650l-2 -3q14 16 14 52q0 12 -4 32l2 -4q-10 33 -34.5 59.5 t-59.5 26.5q-33 0 -54.5 -13t-35 -34.5t-18.5 -46t-5 -45.5h-375zM1182 1077h276q2 25 12.5 49.5t29.5 45t49 33t71 12.5q53 0 90 -41t53 -89q0 -4 1 -12t1 -22q0 -47 -22 -78l-553 -641v-309h866v294h-504l377 422q61 66 96 143t35 169q0 70 -18 131q-23 68 -64 126 t-97 100t-124 65.5t-143 23.5q-88 0 -165 -32.5t-135.5 -90t-93 -134.5t-38.5 -165zM475 -25l486 1573h395l-485 -1573h-396zM541 25h293q57 188 113.5 371.5t113.5 365.5t113.5 365.5t115.5 371.5h-292q-57 -188 -113.5 -371.5t-114 -365.5t-115 -365.5t-114.5 -371.5z M-125 1210l322 338h378v-1573h-393v990q-8 -10 -15 -18.5t-11 -16.5zM-59 1210l206 -206l84 110v-1089h295v1474h-309z" />
<glyph unicode="&#xbe;" horiz-adv-x="2623" d="M1477 360v375l514 813h381v-794h184v-394h-184v-385h-393v385h-502zM1526 410h502v-385h295v385h184v295h-184v794q-80 0 -153.5 -2t-153.5 -2q-123 -195 -245 -386t-245 -386v-313zM835 -25l486 1573h395l-485 -1573h-396zM901 25h293q57 188 113.5 371.5t113.5 365.5 t113.5 365.5t115.5 371.5h-292q-57 -188 -113.5 -371.5t-114 -365.5t-115 -365.5t-114.5 -371.5zM-25 498h138h256q0 -53 30.5 -91t71.5 -38q35 0 61.5 21.5t36.5 51.5q4 12 4 29q0 43 -30.5 81t-71.5 38h-123v344h123q41 0 71.5 38t30.5 81q0 16 -4 28q-10 31 -36.5 52.5 t-61.5 21.5q-41 0 -71.5 -37t-30.5 -90h-394q0 106 39 201.5t106.5 166t158 111.5t192.5 41q82 0 158 -26.5t137 -72.5t107.5 -110.5t70.5 -138.5q12 -39 17.5 -76t5.5 -71q0 -80 -26 -156t-71 -135q45 -59 71 -134t26 -155q0 -37 -5.5 -74t-17.5 -75q-25 -74 -71 -138.5 t-107 -110.5t-137 -73t-158 -27q-102 0 -192.5 41t-158 113t-106.5 166t-39 203zM25 449q4 -88 40.5 -166t97 -135.5t139.5 -90t169 -32.5q76 0 143.5 23.5t124 65.5t97.5 100t63 126q18 61 19 133q0 78 -30 151.5t-83 137.5q53 66 83 139.5t30 151.5q0 70 -19 131 q-23 68 -63.5 126t-97 100t-124 65.5t-143.5 23.5q-90 0 -169 -32.5t-139.5 -90t-97 -134.5t-40.5 -165h297q10 53 51 90t98 37q47 0 87 -31.5t56 -74.5q4 -10 6.5 -22.5t2.5 -22.5q0 -31 -12.5 -60.5t-33 -54.5t-48 -39t-58.5 -14h-74v-246h74q31 0 58.5 -14.5t48 -39 t33 -54t12.5 -60.5q0 -10 -2.5 -22.5t-6.5 -22.5q-16 -43 -56 -75t-87 -32q-57 0 -98 37t-51 93h-209h-88z" />
<glyph unicode="&#xc0;" d="M579 1862v393h392v-377l-117 -206h-268l110 190h-117zM629 1911h151l-111 -190h152q27 47 51.5 87t48.5 87v311h-292v-295zM10 -25l461 1573h496l460 -1573h-440l-139 402h-262l-135 -402h-441zM76 25h342l135 401h330l139 -401h340q-109 375 -217.5 737t-216.5 737h-418 z" />
<glyph unicode="&#xc2;" d="M10 -25l461 1573h496l460 -1573h-440l-139 402h-262l-135 -402h-441zM76 25h342l135 401h330l139 -401h340q-109 375 -217.5 737t-216.5 737h-418z" />
<glyph unicode="&#xc3;" d="M10 -25l461 1573h496l460 -1573h-440l-139 402h-262l-135 -402h-441zM76 25h342l135 401h330l139 -401h340q-109 375 -217.5 737t-216.5 737h-418z" />
<glyph unicode="&#xc8;" horiz-adv-x="1069" d="M325 1862v393h392v-377l-117 -206h-268l110 190h-117zM375 1911h151l-111 -190h152q27 47 51.5 87t48.5 87v311h-292v-295zM-25 -25v1573h983v-393h-589v-197h434v-393h-434v-196h589v-394h-983zM25 25h884v294h-590v295h435v295h-435v295h590v295h-884v-1474z" />
<glyph unicode="&#xca;" horiz-adv-x="1069" d="M-25 -25v1573h983v-393h-589v-197h434v-393h-434v-196h589v-394h-983zM25 25h884v294h-590v295h435v295h-435v295h590v295h-884v-1474z" />
<glyph unicode="&#xcc;" horiz-adv-x="507" d="M51 1862v393h392v-377l-117 -206h-268l110 190h-117zM101 1911h151l-111 -190h152q27 47 51.5 87t48.5 87v311h-292v-295zM-4 -25v1573h393v-1573h-393zM45 25h295v1474h-295v-1474z" />
<glyph unicode="&#xce;" horiz-adv-x="507" d="M-4 -25v1573h393v-1573h-393zM45 25h295v1474h-295v-1474z" />
<glyph unicode="&#xd1;" horiz-adv-x="1236" d="M-23 -25v1573h392l366 -676v676h414v-1573h-389l-369 676v-676h-414zM27 25h315v737l41 10l410 -747h307v1474h-316v-735l-41 -10l-407 745h-309v-1474z" />
<glyph unicode="&#xd2;" horiz-adv-x="1271" d="M436 1862v393h392v-377l-117 -206h-268l110 190h-117zM486 1911h151l-111 -190h152q27 47 51.5 87t48.5 87v311h-292v-295zM-20 606v357q0 104 39.5 209.5t115.5 185.5q90 92 202 141t238 49q125 0 239 -49t200 -141q78 -80 115.5 -182.5t39.5 -212.5v-357 q0 -115 -36.5 -233.5t-118.5 -206.5q-88 -92 -202 -142.5t-239 -50.5q-123 0 -235.5 49.5t-202.5 141.5q-84 90 -118.5 202.5t-36.5 239.5zM29 606q2 -117 33.5 -221t109.5 -188q80 -84 183.5 -129t219.5 -45q117 0 220.5 45t181.5 131q78 82 110.5 191.5t32.5 215.5v357 q-2 100 -36.5 194t-106.5 168q-80 86 -183.5 130t-220.5 44t-219 -45t-182 -129q-70 -74 -106.5 -170t-36.5 -192v-357z" />
<glyph unicode="&#xd4;" horiz-adv-x="1271" d="M-20 606v357q0 104 39.5 209.5t115.5 185.5q90 92 202 141t238 49q125 0 239 -49t200 -141q78 -80 115.5 -182.5t39.5 -212.5v-357q0 -115 -36.5 -233.5t-118.5 -206.5q-88 -92 -202 -142.5t-239 -50.5q-123 0 -235.5 49.5t-202.5 141.5q-84 90 -118.5 202.5t-36.5 239.5 zM29 606q2 -117 33.5 -221t109.5 -188q80 -84 183.5 -129t219.5 -45q117 0 220.5 45t181.5 131q78 82 110.5 191.5t32.5 215.5v357q-2 100 -36.5 194t-106.5 168q-80 86 -183.5 130t-220.5 44t-219 -45t-182 -129q-70 -74 -106.5 -170t-36.5 -192v-357z" />
<glyph unicode="&#xd5;" horiz-adv-x="1271" d="M-20 606v357q0 104 39.5 209.5t115.5 185.5q90 92 202 141t238 49q125 0 239 -49t200 -141q78 -80 115.5 -182.5t39.5 -212.5v-357q0 -115 -36.5 -233.5t-118.5 -206.5q-88 -92 -202 -142.5t-239 -50.5q-123 0 -235.5 49.5t-202.5 141.5q-84 90 -118.5 202.5t-36.5 239.5 zM29 606q2 -117 33.5 -221t109.5 -188q80 -84 183.5 -129t219.5 -45q117 0 220.5 45t181.5 131q78 82 110.5 191.5t32.5 215.5v357q-2 100 -36.5 194t-106.5 168q-80 86 -183.5 130t-220.5 44t-219 -45t-182 -129q-70 -74 -106.5 -170t-36.5 -192v-357z" />
<glyph unicode="&#xd9;" horiz-adv-x="1257" d="M411 1864v393h392v-377l-117 -206h-268l110 190h-117zM461 1913h151l-111 -190h152q27 47 51.5 87t48.5 87v311h-292v-295zM-23 608v942h404v-915q0 -51 10 -95t30.5 -78t53.5 -53.5t78 -19.5t77 19.5t52 53.5t30.5 78t10.5 95v915h403v-942q0 -139 -36.5 -257 t-109.5 -201.5t-180 -130.5q-103 -44 -237 -44h-12h-12q-150 0 -254 50q-109 51 -177.5 139t-99.5 203.5t-31 240.5zM27 608q0 -117 28.5 -223t91 -187t162.5 -128q96 -45 232 -46h12h12q122 0 214 42q97 43 164 120.5t100.5 185t33.5 236.5v893h-305v-866 q0 -61 -13.5 -115.5t-40 -94.5t-67.5 -62.5t-98 -22.5t-99 22.5t-69 62.5t-40 94t-13 116v866h-305v-893z" />
<glyph unicode="&#xdb;" horiz-adv-x="1257" d="M-23 608v942h404v-915q0 -51 10 -95t30.5 -78t53.5 -53.5t78 -19.5t77 19.5t52 53.5t30.5 78t10.5 95v915h403v-942q0 -139 -36.5 -257t-109.5 -201.5t-180 -130.5q-103 -44 -237 -44h-12h-12q-150 0 -254 50q-109 51 -177.5 139t-99.5 203.5t-31 240.5zM27 608 q0 -117 28.5 -223t91 -187t162.5 -128q96 -45 232 -46h12h12q122 0 214 42q97 43 164 120.5t100.5 185t33.5 236.5v893h-305v-866q0 -61 -13.5 -115.5t-40 -94.5t-67.5 -62.5t-98 -22.5t-99 22.5t-69 62.5t-40 94t-13 116v866h-305v-893z" />
<glyph unicode="&#xe0;" d="M579 1862v393h392v-377l-117 -206h-268l110 190h-117zM629 1911h151l-111 -190h152q27 47 51.5 87t48.5 87v311h-292v-295zM10 -25l461 1573h496l460 -1573h-440l-139 402h-262l-135 -402h-441zM76 25h342l135 401h330l139 -401h340q-109 375 -217.5 737t-216.5 737h-418 z" />
<glyph unicode="&#xe2;" d="M10 -25l461 1573h496l460 -1573h-440l-139 402h-262l-135 -402h-441zM76 25h342l135 401h330l139 -401h340q-109 375 -217.5 737t-216.5 737h-418z" />
<glyph unicode="&#xe3;" d="M10 -25l461 1573h496l460 -1573h-440l-139 402h-262l-135 -402h-441zM76 25h342l135 401h330l139 -401h340q-109 375 -217.5 737t-216.5 737h-418z" />
<glyph unicode="&#xe8;" horiz-adv-x="1069" d="M325 1862v393h392v-377l-117 -206h-268l110 190h-117zM375 1911h151l-111 -190h152q27 47 51.5 87t48.5 87v311h-292v-295zM-25 -25v1573h983v-393h-589v-197h434v-393h-434v-196h589v-394h-983zM25 25h884v294h-590v295h435v295h-435v295h590v295h-884v-1474z" />
<glyph unicode="&#xea;" horiz-adv-x="1069" d="M-25 -25v1573h983v-393h-589v-197h434v-393h-434v-196h589v-394h-983zM25 25h884v294h-590v295h435v295h-435v295h590v295h-884v-1474z" />
<glyph unicode="&#xec;" horiz-adv-x="512" d="M51 1862v393h392v-377l-117 -206h-268l110 190h-117zM101 1911h151l-111 -190h152q27 47 51.5 87t48.5 87v311h-292v-295zM-4 -25v1573h393v-1573h-393zM45 25h295v1474h-295v-1474z" />
<glyph unicode="&#xee;" horiz-adv-x="512" d="M-4 -25v1573h393v-1573h-393zM45 25h295v1474h-295v-1474z" />
<glyph unicode="&#xf1;" horiz-adv-x="1236" d="M-23 -25v1573h392l366 -676v676h414v-1573h-389l-369 676v-676h-414zM27 25h315v737l41 10l410 -747h307v1474h-316v-735l-41 -10l-407 745h-309v-1474z" />
<glyph unicode="&#xf2;" horiz-adv-x="1275" d="M436 1862v393h392v-377l-117 -206h-268l110 190h-117zM486 1911h151l-111 -190h152q27 47 51.5 87t48.5 87v311h-292v-295zM-20 606v357q0 104 39.5 209.5t115.5 185.5q90 92 202 141t238 49q125 0 239 -49t200 -141q78 -80 115.5 -182.5t39.5 -212.5v-357 q0 -115 -36.5 -233.5t-118.5 -206.5q-88 -92 -202 -142.5t-239 -50.5q-123 0 -235.5 49.5t-202.5 141.5q-84 90 -118.5 202.5t-36.5 239.5zM29 606q2 -117 33.5 -221t109.5 -188q80 -84 183.5 -129t219.5 -45q117 0 220.5 45t181.5 131q78 82 110.5 191.5t32.5 215.5v357 q-2 100 -36.5 194t-106.5 168q-80 86 -183.5 130t-220.5 44t-219 -45t-182 -129q-70 -74 -106.5 -170t-36.5 -192v-357z" />
<glyph unicode="&#xf4;" horiz-adv-x="1275" d="M-20 606v357q0 104 39.5 209.5t115.5 185.5q90 92 202 141t238 49q125 0 239 -49t200 -141q78 -80 115.5 -182.5t39.5 -212.5v-357q0 -115 -36.5 -233.5t-118.5 -206.5q-88 -92 -202 -142.5t-239 -50.5q-123 0 -235.5 49.5t-202.5 141.5q-84 90 -118.5 202.5t-36.5 239.5 zM29 606q2 -117 33.5 -221t109.5 -188q80 -84 183.5 -129t219.5 -45q117 0 220.5 45t181.5 131q78 82 110.5 191.5t32.5 215.5v357q-2 100 -36.5 194t-106.5 168q-80 86 -183.5 130t-220.5 44t-219 -45t-182 -129q-70 -74 -106.5 -170t-36.5 -192v-357z" />
<glyph unicode="&#xf5;" horiz-adv-x="1275" d="M-20 606v357q0 104 39.5 209.5t115.5 185.5q90 92 202 141t238 49q125 0 239 -49t200 -141q78 -80 115.5 -182.5t39.5 -212.5v-357q0 -115 -36.5 -233.5t-118.5 -206.5q-88 -92 -202 -142.5t-239 -50.5q-123 0 -235.5 49.5t-202.5 141.5q-84 90 -118.5 202.5t-36.5 239.5 zM29 606q2 -117 33.5 -221t109.5 -188q80 -84 183.5 -129t219.5 -45q117 0 220.5 45t181.5 131q78 82 110.5 191.5t32.5 215.5v357q-2 100 -36.5 194t-106.5 168q-80 86 -183.5 130t-220.5 44t-219 -45t-182 -129q-70 -74 -106.5 -170t-36.5 -192v-357z" />
<glyph unicode="&#xf9;" horiz-adv-x="1253" d="M411 1864v393h392v-377l-117 -206h-268l110 190h-117zM461 1913h151l-111 -190h152q27 47 51.5 87t48.5 87v311h-292v-295zM-23 608v942h404v-915q0 -51 10 -95t30.5 -78t53.5 -53.5t78 -19.5t77 19.5t52 53.5t30.5 78t10.5 95v915h403v-942q0 -139 -36.5 -257 t-109.5 -201.5t-180 -130.5q-103 -44 -237 -44h-12h-12q-150 0 -254 50q-109 51 -177.5 139t-99.5 203.5t-31 240.5zM27 608q0 -117 28.5 -223t91 -187t162.5 -128q96 -45 232 -46h12h12q122 0 214 42q97 43 164 120.5t100.5 185t33.5 236.5v893h-305v-866 q0 -61 -13.5 -115.5t-40 -94.5t-67.5 -62.5t-98 -22.5t-99 22.5t-69 62.5t-40 94t-13 116v866h-305v-893z" />
<glyph unicode="&#xfb;" horiz-adv-x="1253" d="M-23 608v942h404v-915q0 -51 10 -95t30.5 -78t53.5 -53.5t78 -19.5t77 19.5t52 53.5t30.5 78t10.5 95v915h403v-942q0 -139 -36.5 -257t-109.5 -201.5t-180 -130.5q-103 -44 -237 -44h-12h-12q-150 0 -254 50q-109 51 -177.5 139t-99.5 203.5t-31 240.5zM27 608 q0 -117 28.5 -223t91 -187t162.5 -128q96 -45 232 -46h12h12q122 0 214 42q97 43 164 120.5t100.5 185t33.5 236.5v893h-305v-866q0 -61 -13.5 -115.5t-40 -94.5t-67.5 -62.5t-98 -22.5t-99 22.5t-69 62.5t-40 94t-13 116v866h-305v-893z" />
<glyph unicode="&#x152;" horiz-adv-x="2340" d="M1247 -25v1573h983v-393h-589v-197h434v-393h-434v-196h589v-394h-983zM1297 25h884v294h-590v295h435v295h-435v295h590v295h-884v-1474zM-20 606v357q0 104 39.5 209.5t115.5 185.5q90 92 202 141t238 49q125 0 239 -49t200 -141q78 -80 115.5 -182.5t39.5 -212.5v-357 q0 -115 -36.5 -233.5t-118.5 -206.5q-88 -92 -202 -142.5t-239 -50.5q-123 0 -235.5 49.5t-202.5 141.5q-84 90 -118.5 202.5t-36.5 239.5zM29 606q2 -117 33.5 -221t109.5 -188q80 -84 183.5 -129t219.5 -45q117 0 220.5 45t181.5 131q78 82 110.5 191.5t32.5 215.5v357 q-2 100 -36.5 194t-106.5 168q-80 86 -183.5 130t-220.5 44t-219 -45t-182 -129q-70 -74 -106.5 -170t-36.5 -192v-357z" />
<glyph unicode="&#x153;" horiz-adv-x="2344" d="M1251 -25v1573h983v-393h-589v-197h434v-393h-434v-196h589v-394h-983zM1301 25h884v294h-590v295h435v295h-435v295h590v295h-884v-1474zM-20 606v357q0 104 39.5 209.5t115.5 185.5q90 92 202 141t238 49q125 0 239 -49t200 -141q78 -80 115.5 -182.5t39.5 -212.5v-357 q0 -115 -36.5 -233.5t-118.5 -206.5q-88 -92 -202 -142.5t-239 -50.5q-123 0 -235.5 49.5t-202.5 141.5q-84 90 -118.5 202.5t-36.5 239.5zM29 606q2 -117 33.5 -221t109.5 -188q80 -84 183.5 -129t219.5 -45q117 0 220.5 45t181.5 131q78 82 110.5 191.5t32.5 215.5v357 q-2 100 -36.5 194t-106.5 168q-80 86 -183.5 130t-220.5 44t-219 -45t-182 -129q-70 -74 -106.5 -170t-36.5 -192v-357z" />
<glyph unicode="&#x2000;" horiz-adv-x="1128" />
<glyph unicode="&#x2001;" horiz-adv-x="2256" />
<glyph unicode="&#x2002;" horiz-adv-x="1128" />
<glyph unicode="&#x2003;" horiz-adv-x="2256" />
<glyph unicode="&#x2004;" horiz-adv-x="751" />
<glyph unicode="&#x2005;" horiz-adv-x="563" />
<glyph unicode="&#x2006;" horiz-adv-x="374" />
<glyph unicode="&#x2007;" horiz-adv-x="374" />
<glyph unicode="&#x2008;" horiz-adv-x="280" />
<glyph unicode="&#x2009;" horiz-adv-x="450" />
<glyph unicode="&#x200a;" horiz-adv-x="124" />
<glyph unicode="&#x2010;" horiz-adv-x="1200" d="M-25 592v393h1108v-393h-1108zM25 641h1009v295h-1009v-295z" />
<glyph unicode="&#x2011;" horiz-adv-x="1200" d="M-25 592v393h1108v-393h-1108zM25 641h1009v295h-1009v-295z" />
<glyph unicode="&#x2012;" horiz-adv-x="1200" d="M-25 592v393h1108v-393h-1108zM25 641h1009v295h-1009v-295z" />
<glyph unicode="&#x2013;" horiz-adv-x="1200" d="M-25 592v393h1108v-393h-1108zM25 641h1009v295h-1009v-295z" />
<glyph unicode="&#x2014;" horiz-adv-x="1517" d="M-25 592v393h1416v-393h-1416zM25 641h1316v295h-1316v-295z" />
<glyph unicode="&#x2018;" horiz-adv-x="299" d="M-27 1548h260l-24 -329h-211zM25 1499q4 -61 10 -113.5t10 -117.5h117q4 59 10 113.5t10 117.5h-157z" />
<glyph unicode="&#x2019;" horiz-adv-x="299" d="M-27 1548h260l-24 -329h-211zM25 1499q4 -61 10 -113.5t10 -117.5h117q4 59 10 113.5t10 117.5h-157z" />
<glyph unicode="&#x201c;" horiz-adv-x="481" d="M-27 1548h260l-24 -329h-211zM25 1499q4 -61 10 -113.5t10 -117.5h117q4 59 10 113.5t10 117.5h-157zM219 1548h260l-24 -329h-211zM270 1499q4 -61 10.5 -113.5t10.5 -117.5h117q4 59 10 113.5t10 117.5h-158z" />
<glyph unicode="&#x201d;" horiz-adv-x="481" d="M-27 1548h260l-24 -329h-211zM25 1499q4 -61 10 -113.5t10 -117.5h117q4 59 10 113.5t10 117.5h-157zM219 1548h260l-24 -329h-211zM270 1499q4 -61 10.5 -113.5t10.5 -117.5h117q4 59 10 113.5t10 117.5h-158z" />
<glyph unicode="&#x2022;" horiz-adv-x="468" d="M-25 621v331h330v-331h-330zM25 670h231v233h-231v-233z" />
<glyph unicode="&#x2026;" horiz-adv-x="1406" d="M913 -25v332h330v-332h-330zM963 25h231v233h-231v-233zM444 -25v332h330v-332h-330zM494 25h231v233h-231v-233zM-25 -25v332h330v-332h-330zM25 25h231v233h-231v-233z" />
<glyph unicode="&#x202f;" horiz-adv-x="450" />
<glyph unicode="&#x2039;" horiz-adv-x="1044" d="M-31 780l633 768h471l-637 -768l633 -805h-465zM31 776q154 -193 297 -376t297 -375h346l-596 759l592 715h-340z" />
<glyph unicode="&#x203a;" horiz-adv-x="1044" d="M-61 -25l636 768l-632 805h465l634 -805l-632 -768h-471zM41 1499l596 -760l-592 -714h340l596 723q-154 193 -297 376t-297 375h-346z" />
<glyph unicode="&#x2044;" horiz-adv-x="485" d="M-197 -25l486 1573h395l-485 -1573h-396zM-131 25h293q57 188 113.5 371.5t113.5 365.5t113.5 365.5t115.5 371.5h-292q-57 -188 -113.5 -371.5t-114 -365.5t-115 -365.5t-114.5 -371.5z" />
<glyph unicode="&#x205f;" horiz-adv-x="563" />
<glyph unicode="&#x2122;" horiz-adv-x="2617" d="M1118 -25v1573h392l299 -835q74 211 150.5 418.5t150.5 416.5h385v-1573h-414v412l-145 -412h-254l-150 431v-431h-414zM1168 25h315v532l45 8l186 -540h189l182 524l45 -8v-516h316v1474h-304l-333 -932l-332 932h-309v-1474zM-23 1155v393h1086v-393h-346v-1180h-393 v1180h-347zM27 1204h346v-1179h295v1179h346v295h-987v-295z" />
<glyph unicode="&#xe000;" horiz-adv-x="1550" d="M0 1550h1550v-1550h-1550v1550z" />
<glyph unicode="&#xfb01;" horiz-adv-x="1570" d="M1055 -25v1573h393v-1573h-393zM1104 25h295v1474h-295v-1474zM-23 -25v1573h984v-393h-590v-197h434v-393h-434v-590h-394zM27 25h295v589h434v295h-434v295h589v295h-884v-1474z" />
<glyph unicode="&#xfb02;" horiz-adv-x="1955" d="M1034 -25v1573h394v-1179h407v-394h-801zM1084 25h702v294h-408v1180h-294v-1474zM-23 -25v1573h984v-393h-590v-197h434v-393h-434v-590h-394zM27 25h295v589h434v295h-434v295h589v295h-884v-1474z" />
<glyph unicode="&#xfb03;" horiz-adv-x="2629" d="M2114 -25v1573h393v-1573h-393zM2163 25h295v1474h-295v-1474zM1036 -25v1573h984v-393h-590v-197h434v-393h-434v-590h-394zM1086 25h295v589h434v295h-434v295h589v295h-884v-1474zM-23 -25v1573h984v-393h-590v-197h434v-393h-434v-590h-394zM27 25h295v589h434v295 h-434v295h589v295h-884v-1474z" />
<glyph unicode="&#xfb04;" horiz-adv-x="3014" d="M2093 -25v1573h394v-1179h407v-394h-801zM2143 25h702v294h-408v1180h-294v-1474zM1036 -25v1573h984v-393h-590v-197h434v-393h-434v-590h-394zM1086 25h295v589h434v295h-434v295h589v295h-884v-1474zM-23 -25v1573h984v-393h-590v-197h434v-393h-434v-590h-394zM27 25 h295v589h434v295h-434v295h589v295h-884v-1474z" />
</font>
</defs>
</svg>
